Download Film Terbaru | Film Terbaru 2017 | Download Film Ganool

Download Film Ganool , Download Film Terbaru 2017 Gratis , Ganool Movie , Film Box Office, Movie India, Movie Korea, Movie Thailand, Terbaru 2017 Lengkap.

Download Film Semi Korea A DELICIOUS FLIGHT (2015) HDRip 720p

Ganooldownload.com – Download Film Semi Korea A Delicious Flight (2015) HDRip 720p All Subtitles English Indonesia Full HD Free Movie Download A DELICIOUS FLIGHT (2015) HDRip 720p. Download High Quality with Free Direct Single Links. HD Movies Download.Download Film MOMENTUM (2015) Bluray 720p Full Subtitle English Indonesi

 

 

A Delicious Flight (2015)Download Film Semi Korea A Delicious Flight (2015) HDRip 720p

Cast : Sondeokgi, jeongyujin, Sinyuju, jeonhyeonsu

Synopsis :

Synonymous with pitiful innocent, but fled to the sex scandal with actress idol, until Valence screwed all her idol career, ever loyal passionate manager, and now to the former girlfriend of a sexy flight attendant manager for her! The four men never met should not be encountered in flight. I can not run away from there too balchik and awfully unfold the hottest romance.

Genre: Drama Adult
Countries: South Korea
Languages: Korean

MediaInfo :
Video
ID : 201
Format : AVC
Format/Info : Advanced Video Codec
Format profile : High@L4.1
Format settings, CABAC : Yes
Format settings, ReFrames : 2 frames
Format settings, GOP : M=3, N=15
Codec ID : avc1
Codec ID/Info : Advanced Video Coding
Duration : 1h 36mn
Bit rate : 3 000 Kbps
Width : 1 280 pixels
Height : 720 pixels
Display aspect ratio : 16:9
Frame rate mode : Constant
Frame rate : 29.970 fps
Color space : YUV
Chroma subsampling : 4:2:0
Bit depth : 8 bits
Scan type : Progressive
Bits/(Pixel*Frame) : 0.109
Stream size : 2.09 GiB (90%)
Writing library : x264 core 120
Encoding settings : cabac=1 / ref=2 / deblock=1:0:0 / analyse=0x3:0x113 / me=hex / subme=6 / psy=1 / psy_rd=1.0:0.0 / mixed_ref=1 / me_range=16 / chroma_me=1 / trellis=0 / 8x8dct=1 / cqm=0 / deadzone=21,11 / fast_pskip=0 / chroma_qp_offset=-2 / threads=8 / sliced_threads=0 / nr=0 / decimate=1 / mbaff=0 / constrained_intra=0 / bframes=2 / b_pyramid=0 / b_adapt=0 / b_bias=0 / direct=3 / wpredb=0 / wpredp=2 / keyint=15 / keyint_min=8 / scenecut=0 / intra_refresh=0 / rc_lookahead=15 / rc=abr / mbtree=1 / bitrate=3000 / ratetol=1.0 / qcomp=0.60 / qpmin=0 / qpmax=51 / qpstep=4 / ip_ratio=1.41 / aq=1:1.00
Tagged date : UTC 2015-10-16 01:47:23

Audio
ID : 101
Format : AAC
Format/Info : Advanced Audio Codec
Format profile : LC
Codec ID : 40
Duration : 1h 36mn
Bit rate mode : Variable
Bit rate : 192 Kbps
Channel(s) : 2 channels
Channel positions : Front: L R
Sampling rate : 48.0 KHz
Compression mode : Lossy
Stream size : 133 MiB (6%)
Tagged date : UTC 2015-10-16 01:47:23

Screenshoot :

Download A Delicious Flight 2015 HDRip 720p (650Mb)
DOWNLOAD LINK

Updated: October 29, 2015 — 4:00 pm

Leave a Reply

Your email address will not be published. Required fields are marked *

Download Film Terbaru | Film Terbaru 2017 | Download Film Ganool © 2016 Frontier Theme